Redump Missing

rom sites If You Want To Help Me Collect Sites Or Know Of Any sites Im Missing You Can Get Ahold Of Me redump, tosec, and. Autogenerate the missing cue file for your PSX emulation bins. 1 Why does MAME report "missing files" even if I have the ROMs?; 2 How can I be sure I have the right ROMs?; 3 How do I legally obtain ROMs or disk images to run on MAME?; 4 Isn't copying ROMs a legal gray area?; 5 Can't game ROMs be considered abandonware?; 6 I had ROMs that worked with an old version of MAME and now they don't. Remember most games aren't playable yet always check the official compatibility list before attempting to emulate something so you don't waste time. botw dlc - i'm going to be adding some more dumps soon. You didn't mention how your backup was made, so the generic answer is: Usually with the psql tool. The goal is to make blueprints of the data on console and PC game discs. I really never expected to see myself looking for this. Welcome to replayers. Welcome to the Wii Vault. org's GameCube BIOS list is incomplete and missing some BIOSes. 100% Fast Downloads!. A Database is attached. If you are missing the titlekey or an update won't load, sometimes updates change the titlekey between versions - either way redump and if that doesn't work contact the discord/devs. 00 out of 5. Redump GameCube USA set. i recently started playing pokemon moon downloaded from your site and is working fine. 14l (1024 bytes) - NEEDS REDUMP f1dream : c8751h-88 (4096 bytes) - NOT FOUND - NO GOOD DUMP KNOWN f355bios : 315-6146. RPCS3 Tutorial: RPCS3 is now good enough to emulate some games at full speed, therefore this guide. If you don't know how to get the hash of your game, use this tool. Dumps have never and will never be provided on the Redump site!. 312BhP Member 18 posts. org gdi image has several difference compare to the general gdi format. Panel De Pon – Event ’98 Version (redump) Yoshi no Panepon BS Ban redump batch. Restores Hiryu's missing "Hah!" voice track that he uses when he attacks enemies & bosses with his Cypher. Repeat for all tracks. Redump images don't require hash preservation, scrubbing preservation or invalid fst. 147 (next version) there was no sound anymore. If the CUE is missing, you can create it like this: FILE "NameOfTheBin. 【DC】DC官方游戏redump全集【1109个】。Redump是一种标准,这类游戏镜像经过镜像数据库redump. back to menu ↑ Vimm's Lair. Missing lots of games. Propeller Arena (Sep 11, 2001 prototype) From Hidden Palace. See also: MIA Lists. The goal is to make blueprints of the data on console and PC game discs. Has hashes for some games, which you redump v2 9 rar can use to supplement. Latest discussions. 000?, SATURNT17701H ringcode (no RE or. 2) and also a file necessary for the program to work, yes the infamous BASE. Unlike the others, they come in a dozen of different disc formats. Redump's staff does not ask for the actual dumps, only the disc information and dump information. Wanted: Manual scans Wanted: Redump of Microsoft C 5. When i started in Redump my only intention was to help them get the spanish stuff missing. Removes the anti-modchip. Restores Hiryu's missing "Hah!" voice track that he uses when he attacks enemies & bosses with his Cypher. Redump 3DO set (2017-04-04). Requires login. Eventually, information from this page on not working games will be used to create, compile and update a software list for the Nintendo SNES / Super Famicom and its related consoles for MESS. MAME Debugger Help This page probably needs to be rewritten for the "new" debugger. Vimm's Lair site is dedicated to preserving the Classics,here one can find thousands of games, full-color manual scans, user ratings, reviews, and much more. 4 will be using the new format BIOS (*. 7z file extract it with 7zip or Winrar CHD Compatible with Flycast, Redream & Reicast Description Please login. The list from redump. But redump. Region Title System Version Edition Languages Serial Status; _summer Double Sharp. Redump NEC - PC-FX. Download xbox-image-browser-v rar from Mafi. This is a new misslist from scratch, work in progress by Landcross. Game ID: SLPS-01000, SLPM-87331. 2020-06-06 23:54:33 (NES) Missing language Hello, The eu version of this nes game have 4 language 2020-06-06 01:05:45 (SMD). The naming convention is based on the 2019-3-31 ReDump set. botw dlc - i'm going to be adding some more dumps soon. Any hashes for games not in the redump. Just trying to figure out what's missing from the collection:. the entries with missing size/hash data, could you list them? GregHouse @ 2020-05-14 The WiiU CDN have entries with size: 0 CRC32: - GregHouse @ 2020-05-14 @Hiccup Thank you! The game Zelda Breath of the Wild dont have the DLC entry in any region. If you've checked the solutions and verified you're using a vanilla rip of the game, you might have found a bug. They focus on accurately dumping and verifying the dumps to be 1:1 copies of the original. Recovery uses these files to rebuild the iso and repair modified disc headers, unscrub blocks, reinsert missing Wii partitions, move and reorder GameCube filesystems. 312BhP Member 18 posts. RetroArch is a frontend for emulators, game engines and media players. org is the "source of truth" so to speak for these hashes (Notice how CleanRip references redump. Cover art is provided by Launchbox and more covers and screen shots will be added in the coming days. Verified REDUMP. Includes DAT files to verify with ClrMamePro. IMPORTANT NOTES ON MULTI-DISC GAMES: Most multi. Main Discs Downloads Site Guide Wiki Forum. the entries with missing size/hash data, could you list them? 3 x 8 = Latest discussions. Cu-On-Pa (BS) (redump) Dr. Propeller Arena (Sep 11, 2001 prototype) Build date: Sep 11, 2001 Dump status: Released, redump needed Origin: GD-R Game: Propeller Arena System: Dreamcast: Missing title screenshots; Propeller Arena prototypes; Dreamcast prototypes; Unreleased. fixed: stats count of missing roms for clone sets which only consist of parent roms (and chds) fixed: stats count of missing chds in case set check is disabled fixed: fixmissing skips the set with the missing file itself for checking for a possible match and might miss a possible fix (pretty rare that a set holds identical files, but e. Added missing rom to a GEI Poker set [Team Europe, Dumping Union] Naomi /Atomiswave video hardware update: [ David Haywood ] Basically the region array is processed, and the data from the accumulation buffer where we render is now copied into the framebuffer depending on the tiles specified in the tile list. In reply to: Re: bandwidth is a joke posted by TinMan1325 on. Includes manuals. Some games have already been dumped, but the current ROM images have been identified either as being hacked or as being corrupt in some way, necessitating them being dumped again. Development "Elemental Gearbolt NTSC, SLUS-00654, CRC-32: 8a6d6287: needs K1V2 to boot, after that audio plays fine in both the intro and during gameplay. i reach till the stage where professor sycamore invites me to the world of pokemon and then game freezes. Software Contest Nyuusen Sakuhinshuu 3, Virtuacall 2 [redump. 0, as it dumps a more "complete" copy of the BIOS. Game ID: SLPS-01000, SLPM-87331. bin j2-u001. Includes manuals and magazines. 6 (65536 bytes) - NOT FOUND (model1io2). org is the "source of truth" so to speak for these hashes (Notice how CleanRip references redump. You will need 3 BIOSes:. RetroArch is a frontend for emulators, game engines and media players. Also included is a folder with 225 3D Boxes for games not listed in the ReDump rom set. There are two key uses of NKit: Recovery: Rebuild and repair images to match Redump verified images. TLDR: Gaming preservation group Redump is starting to go after FM Towns preservation harder than before. Disc and cover scans are provided by GameTDB. in/public/chkb. 40 "Focal Fossa". ORG File: Legend of Zelda, The - Twilight Princess (USA) (En,Fr,Es) (v1. 0, as it dumps a more "complete" copy of the BIOS. This is a ROM manager primarily for MAME that's based around storing ROM files in non-merged, uncompressed sets. @GregHouse re. Redump's staff does not ask for the actual dumps, only the disc information and dump information. So, I decided to do a bit more refactoring to the ambush driver first, to make it easier to move the bootlegs to the correct driver. fixed: stats count of missing roms for clone sets which only consist of parent roms (and chds) fixed: stats count of missing chds in case set check is disabled fixed: fixmissing skips the set with the missing file itself for checking for a possible match and might miss a possible fix (pretty rare that a set holds identical files, but e. Redump PC-Engine CD/TurboGrafx CD set (2016-11-06) Redump NEC - PC Engine CD & TurboGrafx CD set. One of them is Crash Tag Team Racing, the Japanese version, known as: Crash Bandicoot: Gacchanko World. But redump. Has hashes for some games, which you redump v2 9 rar can use to supplement. 90 copies in a grey cart - like the one currently on sale - were distributed to the competition's finalists, while another 26 were forged. Propeller Arena (Sep 11, 2001 prototype) Build date: Sep 11, 2001 Dump status: Released, redump needed Origin: GD-R Game: Propeller Arena System: Dreamcast: Missing title screenshots; Propeller Arena prototypes; Dreamcast prototypes; Unreleased. 147 (next version) there was no sound anymore. Is the issue present in the latest development. Hello, I'm searching for a bunch of chds for ages, maybe anybody can help me: AmigaOS 3. bin> 'needs redump' simply means that the file is flagged (in the MAME database) as > bad_dump, so nothing to worry about. What does that mean!? Im desperate. rom sites - Read online for free. If you don't know how to get the hash of your game, use this tool. Recovery: Rebuild and repair images to match Redump verified images. org is a disc preservation project. Redump GameCube USA set. Redump's catalog is missing a couple dozen US games so they'll be added as they become available. It says it cant find Carnevil1_9. Fixes spelling errors in the text that are used in the Stage 00 cutscene. You can often fix it by selecting "Options" > "Default Game Options" > "Advanced" and ensuring that "Switch resolutions to fit" is unchecked. Many thousands of hours have been put into creating a database with. Front Mission 2 (J+English Patched) PSX ISO Download. Is anyone willing / able to scan this fix dat please to try and help get my missing. Cu-On-Pa (BS) (redump) Dr. Any of my search term words; All of my search term words; Find results in Content titles and body; Content titles only. Emulation Manager. ZAPiT Games: Game Wave Family Entertainment System - Redump. This list is serial specific, redump v2 9 rar not title specific. This has been a recent complaint from people who do not have the Recovery Update partitions. Missing lots of games. Panel De Pon – Event ’98 Version (redump) Yoshi no Panepon BS Ban redump batch. The same logic applies to missing rows, except that up/down symmetry is assumed. IMPORTANT NOTES ON MULTI-DISC GAMES: Most multi. Redump ps2 - ct. Redump Dreamcast set (2015-09-20). Unknown hash on IPL. Any hashes for games not in the redump. Also included is a folder with 225 3D Boxes for games not listed in the ReDump rom set. without those, i can't help you. This helps you avoid downloading upwards of 400 gigabytes just to get only a fraction of the contents. 12,151 views. Software Contest Nyuusen Sakuhinshuu 3, Virtuacall 2 [redump. Fixed in 1. m unable to play pokemon x. PlayStation ROMS. TUTORIAL: Here is a quick tutorial on how to verify a MD5 checksum from redump. A Database is attached. Redump PS1 games come in. Deprecated: implode(): Passing glue string after array is deprecated. @cfillak: Maybe. Welcome to the Wii Vault. Swap the parameters in /home/safeconindiaco/account. Languages: English Patched, Japanese. botw dlc - i'm going to be adding some more dumps soon. in/public/chkb. The Legend of Zelda: Twilight Princess is a Action game published by Nintendo released on November 19, 2006 for the Nintendo Wii. bin (2048 bytes) - NOT FOUND (mie). I think I can help you, as I have now pretty experience recovering old Wii *. Download xbox-image-browser-v rar from Mafi. There is nothing to be done about these messages until some MAME dumpers can get their hands on a game PCB, redump the chips and send them to the MAME team. The San Jose, considered the holy. The required format for the CD images is BIN+CUE. it also backs up the following files to a folder incase you want to re-run it at some point but you can just delete the folder if you want. We want to ensure you guys that redump. USA Possible Revisions T-16201H Corpse Killer: Graveyard Edition (Disc 1) -- v1. Cu-On-Pa (BS) (redump) Dr. It all started with a broken contract with Nintendo at the end of the decade of 1980. 10 Ubuntu "Eoan Ermine" et la version 64-bit pour Ubuntu v20. But redump. MUCH faster than with BIN+CUE. bin" BINARY TRACK 01 MODE2/2352 INDEX 01 00:00:00 We recommand CD images from Redump. Settings are also unified so configuration is done once and for all. A short (and hopefully catchy) introduction may also be present at the beginning of each entry, to give the user an immediate idea of the emulated system. Languages: English Patched, Japanese. org is a disc preservation project. I noticed after making readable the Saturn database rb that you're only checking the. This site host perfect rips as verified by redump. For an overview of all missing lists, see also Discs not yet dumped. org is here to stay. version), Tiger R-Zone (Super Screen version, but can't get display to work), and 19 more carts: Batman & Robin, Panzer Dragoon (with Super Screen), Men In Black, Indy 500, Mortal Kombat 3, Mortal Kombat Trilogy, Independence Day, Virtua Fighter, Virtua Fighter 2, Nights Into Dreams, The Lost World, Apollo 13, Star Wars:Rebel Forces, Virtua Cop, Area 51, Road Rash 3. 06881: pairsred: Missing sound : Description : Missing sound in Pairs Redemption since MAME 0. +EPR-21576c - NAOMI BOOT ROM 1999 03/11 1. Redump images don't require hash preservation, scrubbing preservation or invalid fst. Mario (BS) redump batch (deleted header data but games intact) Gambler Jiko Chuushisha 2 – Dorapon Quest (BS) (redump) Kaizou Choujin Shubibinman Zero (redump) Let’s Pachinko Nante Gindama 4 (redump) Parlor! Parlor! 2. A short (and hopefully catchy) introduction may also be present at the beginning of each entry, to give the user an immediate idea of the emulated system. (previous 200) ( next 200 ). Note: This post is a summary of my posts to this thread on the Bannister forums. In reply to: Re: bandwidth is a joke posted by TinMan1325 on. You will need 3 BIOSes:. US scientists found a Spanish galleon laden with treasure worth up to £12. [Angelo Salese] -ddenlovr. I don't get it!!!! I waited THREE weeks to download 32 GB worth of crap on!! JUST to get CarnEvil CHD. Eventually, information from this page on not working games will be used to create, compile and update a software list for the Nintendo SNES / Super Famicom and its related consoles for MESS. It isn't a bug it has to be done like this to be in the list. org is the "source of truth" so to speak for these hashes (Notice how CleanRip references redump. Fixed in 1. This list is serial specific, redump v2 9 rar not title specific. Tried it on five different GameCube games in my games list and it always fails. Redump GameCube USA set. Depending on what pg_dump was instructed to dump, the SQL file can have different sets of SQL commands. I've already wrote because, IMHO redump method is old and not situable for psx disk. Now introducing the PlayStation Portable Vault! Like every Vault it has every PSP game released in the US verified daily (with Redump). Game ID: SLPS-01000, SLPM-87331. Welcome to replayers. [This was originally posted in Emulation Reddit] I still remember when i was nasty idiot looking for isos in Redump. org? Even if its just some of the smaller files, anything is appreciated!. org is a disc preservation project. Posted on February 18, 2017 by Duke. Backyard Football 1999. The goal is to make blueprints of the data on console and PC game discs. Redump PC-Engine CD/TurboGrafx CD set (2016-11-06) Redump NEC - PC Engine CD & TurboGrafx CD set. Redump - disc images information. Tried it on five different GameCube games in my games list and it always fails. - New dumps from redump. Redump Dreamcast set (2015-09-20). ZAPiT Games: Game Wave Family Entertainment System - Redump. Tiger R-Zone (X. Only four are missing as original artwork for. Both the GameCube and Wii use the same code to encode the filesystem. bin" BINARY TRACK 01 MODE2/2352 INDEX 01 00:00:00 We recommand CD images from Redump. Either check the CAQ first then check below to see if its been asked already (one comment chain per issue please, lets keep it neat). 2 instead of the obvious 1. Download xbox-image-browser-v rar from Mafi. Sega Saturn Japan Missing Games List. Propeller Arena (Sep 11, 2001 prototype) From Hidden Palace. Includes manuals. botw dlc - i'm going to be adding some more dumps soon. ScreenShots:. Alright, Here is the image [/php] After a short time, it becomes 100% black I'm using Dolphin 3. [Angelo Salese] -ddenlovr. and Donkey Kong 3. Now I cant even play it? Please help me. Recovery: Rebuild and repair images to match Redump verified images. Anything missing from this collection that is listed on Redump's database was never shared by the dumper (s) or anyone else in possession of the disc (s). Albert Odyssey - Battle status text is sometimes truncated. System Information Operating System: Windows 10 x64 CPU: Intel® Core™ i3-8145U CPU @ 2. Repeat for all tracks. Disc and cover scans are provided by GameTDB. 5 (NTSC-J) with a Sandisk Extreme 128GB microSD card. This page lists all available commands and the syntax of the MAME debugger, as available inside it with the "help" command. You can often fix it by selecting “Options” > “Default Game Options” > “Advanced” and ensuring that “Switch resolutions to fit” is unchecked. bin ROM NEEDS REDUMP That's right, but it doesn't prevent the game to boot or even to work (with or without glitch, I can't guess at this point). 0 which you can grab from our Downloads>Tools Section here. Hi Rob! Thanks for the reply (and all your work in general!) After a bit of butchering in the index. Redump - disc images information. Anything missing from this collection that is listed on Redump's database was never shared by the dumper(s) or anyone else in possession of the disc(s). dat file available on the Releases tab. These are the games that still have problems with OPL: Star. It enables you to run classic games on a wide range of computers and consoles through its slick graphical interface. Redump guide Redump guide. Strider 2: Restores the missing Japanese audio back to the cutscenes. 221, mais il y a du changement: en effet, la version 32-bit est ici pour v19. Beware redump. I missing wingwar and clones wingwar : 315-5711. @GregHouse re. Redump PC-Engine CD/TurboGrafx CD set (2016-11-06) Redump NEC - PC Engine CD & TurboGrafx CD set. And in MAME 0. The naming convention is based on the 2019-3-31 ReDump set. The 3DO Interactive Multiplayer (often called simply the 3DO) is a home video game console platform developed by The 3DO Company. 3 All-Star Baseball '97 - Minor graphics glitches(VDP1-related). So, I decided to do a bit more refactoring to the ambush driver first, to make it easier to move the bootlegs to the correct driver. This is a collection of 3693 3D Boxes for the Japan Region Original Sony PlayStation. If there is a download link on this page and you expect a torrent to be "well seeded" its VERY unlikely you will have much success - Our revenue funded Seedboxes usually only host for 90 days (more in some "collection" cases). This is aided by use of Recovery files that can be extracted from good sources. It says it cant find Carnevil1_9. Download section for Sega Saturn ROMs / ISOs of Rom Hustler. mp3 format might need editing their cue file with Notepad with the correct filenames for them to work correctly. org entries before purchase. Redump - disc images information. Restores Hiryu’s missing “Hah!” voice track that he uses when he attacks enemies & bosses with his Cypher. This also includes games that are dumped but only shared privately. A collection of miss lists for redump. Getting an incorrect key means you might have a bad dump of your switch's files. Region Title System Version Edition Languages Serial Status; R-Type Final: PS2: 1. What does Redump mean emotionally. bin j2-u001. @GregHouse re. Not liking monotony, there is a desire to get moving. MAME - Multiple Arcade Machine Emulator: root: summary refs log tree commit diff stats. MESS is an acronym which stands for Multi Emulator Super System. org Status if they’re all unselected. ReDump - Sega DreamCast/Missing Parts 3 - The Tantei Stories (Japan). I have a dump file with a. More information will be added in the future. Redump's catalog is missing a couple dozen US games so they'll be added as they become available. 90 copies in a grey cart - like the one currently on sale - were distributed to the competition's finalists, while another 26 were forged. This is aided by use of Recovery files that can be extracted from good sources. Albert Odyssey - Legend of Eldean: USA: T-12705H: Fully Playable: PreviewVer_R16: Redump : Alien Trilogy Levels missing graphics (forground) Sky Target: USA: 81051: Fully Playable: PreviewVer_R16: Redump : Slam'n Jam '96 featuring Magic & Kareem Signature Edition: USA: T. Play Backyard Football game that is available in the United States of America (USA) version only on this website. u32 and that the CHD needs to be Redumped. The Film Theorists Recommended for you. Who would have said after these two years, that i would be writing this. PlayStation 1 was released on December 3, 1994 in Japan, 3rd September, 1995 in the U. bin (8192 bytes) - NEEDS REDUMP wingwar : epr-16891. Download PayPal money hacker v2. For an overview of all missing lists, see also Discs not yet dumped. This site host perfect rips as verified by redump. Restores the original uncensored sprites of the Amazon enemy. The 3DO Interactive Multiplayer (often called simply the 3DO) is a home video game console platform developed by The 3DO Company. I'm not sure if this is allowed but here is a list of over 8000 psx roms. Redump images don't require hash preservation, scrubbing preservation or invalid fst. Redump - disc images information. This is why i provided both a Redump and Non-Redump dat in my previous post. I noticed after making readable the Saturn database rb that you're only checking the. the price for PS · SS · N64 · 3DO Masterpiece Game Collection drops. Duke's Home. 25" Floppy. 146u5) - September 17th 2012 (0. クロノ・クロス Куроно Куросу) — японская компьютерная ролевая игра, разработанная компанией Square и вышедшая на приставке Sony PlayStation 18 ноября 1999 года в Японии и 15 августа 2000 года в США. Images are sometimes not shown due to bandwidth/network limitations. Recovery: Rebuild and repair images to match Redump verified images. Dreamcast - Redump Datfile (1261) Reply Subscribe. Redump Dreamcast set (2015-09-20). 7z format and can be opened with the free tool 7-Zip. A category for all missing lists of media to be collected for redump. 2) and also a file necessary for the program to work, yes the infamous BASE. Also included is a folder with 225 3D Boxes for games not listed in the ReDump rom set. Region Title System Version Edition Languages Serial Status; R-Type Final: PS2: 1. 1) ISO ROM for PSX to play on your pc, mac, android or iOS mobile device. +Korea and Australia is missing. They only have 7 entries in their DAT file and 3 of them is BIOS entries. The goal is to make blueprints of the data on console and PC game discs. 0-UNSTABLE Alien Trilogy - A VDP2 graphics layer is offset by 8 pixels horizontally from where it should be; VDP2 VRAM cycle pattern registers issue. ROM name and hash value Snatche. Emulator: PCSX2 - Playstation 2 BIOS (PS2 BIOS) User rating: File size: 12. Download section for Dreamcast ROMs / ISOs of Rom Hustler. I missing wingwar and clones wingwar : 315-5711. Redump *Unplayable in *Unplayable in latest version PreviewVer_R16 - Graphics missing durring level select: Ten Pin Alley: USA: T-13705H: Fully Playable. rom sites - Read online for free. I don't know if thats a bug or not though. org dat were gathered from various places and verified against several people's collections. Anything missing from this collection that is listed on Redump's database was never shared by the dumper(s) or anyone else in possession of the disc(s). Requires login. Beware redump. org also provides guides to ensure the dumps are correctly done. ROM name and hash value Snatche. Welcome to the Redump Wiki. Who would have said after these two years, that i would be writing this. Region Title System Version Edition Languages Serial Status; R-Type Final: PS2: 1. Together we are stronger. bin (8192 bytes) - NEEDS REDUMP wingwar : epr-16891. and September 29, 1995 in Europe. The column 'Likely matching an existing dump' is just an educated guess and not confirmed. Strider 2: Restores the missing Japanese audio back to the cutscenes. u32 and that the CHD needs to be Redumped. 156 - UPDATES COLLECTION. org dat were gathered from various places and verified against several people's collections. org is here to stay. org systems. mariobl was marked working, but dkong3abl had bad graphics, and various bits were missing. 25" Floppy. Ulivi] -screen. Steps To Reproduce : Additional Information : Possible regression between 20th August 2012 (0. 2 instead of the obvious 1. r/psx: It's nostalgia overload as we discuss the most influential gaming system ever released! The original PlayStation, later called PSOne, brought …. Dreamcast set (2016-06-13). Missing lots of games. This page lists all available commands and the syntax of the MAME debugger, as available inside it with the “help” command. Posted on August 25, 2017 by Duke. Dreamcast - Redump Datfile (1261) Reply Subscribe. Cu-On-Pa (BS) (redump) Dr. @@ -35,11 +35,12 @@ There's a chance that certain bootlegs might have the different 8/20 MHz XTALS. Redump's staff does not ask for the actual dumps, only the disc information and dump information. com's game information and ROM download page for Q-Sound (MAME). bin" BINARY TRACK 01 MODE1/2352 INDEX 01 00:00:00 This video is for EDUCATION PURPOSES ONLY. mariobl was marked working, but dkong3abl had bad graphics, and various bits were missing. Redump 3DO; Redump PS1 USA set. Also included is a folder with 225 3D Boxes for games not listed in the ReDump rom set. bin (8192 bytes) - NEEDS REDUMP wingwar : epr-16891. You need daemon tools because there're any emulator that support this (non-standard) multi-track format. without those, i can't help you. Redump - disc images information. updated to v5 it now starts off at a menu that lets you view the 3ds rom info, start the 3ds to cia converter or exit. Region Title System Version Edition Languages Serial Status; R-Type Final: PS2: 1. While redump. Missing lots of games. But sometimes you can be stubborn or bounded. Mario (BS) redump batch (deleted header data but games intact) Gambler Jiko Chuushisha 2 - Dorapon Quest (BS) (redump) Kaizou Choujin Shubibinman Zero (redump) Let's Pachinko Nante Gindama 4 (redump) Parlor! Parlor! 2. With that said, Redump was born in the past as a PSX Database for verificating your own backups. zip 884 MB. USA Possible Revisions T-16201H Corpse Killer: Graveyard Edition (Disc 1) -- v1. You can see this confirmed by the filename of the included DAT. Swap the parameters in /home/safeconindiaco/account. Strider 2: Restores the missing Japanese audio back to the cutscenes. 40 "Focal Fossa". TLDR: Gaming preservation group Redump is starting to go after FM Towns preservation harder than before. bin" BINARY TRACK 01 MODE2/2352 INDEX 01 00:00:00 We recommand CD images from Redump. Dumps have never and will never be provided on the Redump site!. version), Tiger R-Zone (Super Screen version, but can't get display to work), and 19 more carts: Batman & Robin, Panzer Dragoon (with Super Screen), Men In Black, Indy 500, Mortal Kombat 3, Mortal Kombat Trilogy, Independence Day, Virtua Fighter, Virtua Fighter 2, Nights Into Dreams, The Lost World, Apollo 13, Star Wars:Rebel Forces, Virtua Cop, Area 51, Road Rash 3. It isn't a bug it has to be done like this to be in the list. Refreshing the page usually helps. HOW TO GET NEW KEYS FOR YUZU EMULATOR & RYUJINX (YUZU KEYS WITHOUT SWITCH) (HOW TO DOWNLOAD KEYS) - Duration: 4:25. The game is a sequel to Konami's first driving game, Road Fighter which was released in 1984. SKILL 16GB (4x4GB) DDR3-1600 RAM | Samsung 850 EVO 250 GB SSD | Seagate ST3000DM001 3TB HDD. Requires login. Getting an incorrect key means you might have a bad dump of your switch's files. 58 and it is a. bin ROM NEEDS REDUMP That's right, but it doesn't prevent the game to boot or even to work (with or without glitch, I can't guess at this point). Information Product type DevTool Vendor Microsoft Release date 1987 Minimum CPU 8088 User interface Text Platform DOS Download count 11 (1 for release) Downloads. This list is serial specific, redump v2 9 rar not title specific. Mario (BS) redump batch (deleted header data but games intact) Gambler Jiko Chuushisha 2 – Dorapon Quest (BS) (redump) Kaizou Choujin Shubibinman Zero (redump) Let’s Pachinko Nante Gindama 4 (redump) Parlor! Parlor! 2. back to menu ↑ Vimm's Lair. A Database is attached. 1271 - Slide Adventure - Mag Kid (Japan). There is nothing to be done about these messages until some MAME dumpers can get their hands on a game PCB, redump the chips and send them to the MAME team. Windows 10 Pro x64 | Intel Core i7-4790K @ 4. 1a (279 bytes) - NOT FOUND - NO GOOD DUMP KNOWN. Welcome to the Redump Wiki. Audit: "ROM NEEDS REDUMP" No Ham: 2/2/00 12:00 AM: Just did an audit with mame32 36b15 after downloading the b12, b13, b14, and b15 roms. Redump PS1 PAL sets. All games are in. Now introducing the PlayStation Portable Vault! Like every Vault it has every PSP game released in the US verified daily (with Redump). Redump 3DO; Redump PS1 USA set. 7z format and can be opened with the free tool 7-Zip. Also included is a folder with 225 3D Boxes for games not listed in the ReDump rom set. This program will dump the PS2 BIOS, DVD Player ROM, NVM etc from your PlayStation 2 via a 'host' enabled connection. Added missing rom to a GEI Poker set [Team Europe, Dumping Union] Naomi /Atomiswave video hardware update: [ David Haywood ] Basically the region array is processed, and the data from the accumulation buffer where we render is now copied into the framebuffer depending on the tiles specified in the tile list. Region Title System Version Edition Languages Serial Status ¡Qué Pasa Neng! El Videojuego. Languages: English Patched, Japanese. Disc and cover scans are provided by GameTDB. Repeat for all tracks. The same logic applies to missing rows, except that up/down symmetry is assumed. Hierophant Site Administrator Posts: 3503 Joined: December 12th, 2008, 2:41 am Favorite Game: Alien vs Predator Location: LV-426 Acheron. What does that mean!? Im desperate. (previous 200) ( next 200 ). com's game information and ROM download page for Q-Sound (MAME). Just trying to figure out what's missing from the collection:. 4), and then. Includes DAT files to verify with ClrMamePro. Redump Dreamcast set (2015-09-20). 2) and also a file necessary for the program to work, yes the infamous BASE. + ROM_LOAD( "c09-18. I'm not sure if this is allowed but here is a list of over 8000 psx roms. I've already wrote because, IMHO redump method is old and not situable for psx disk. If you don't know how to get the hash of your game, use this tool. Buy the book that goes with it. bin" BINARY TRACK 01 MODE2/2352 INDEX 01 00:00:00 We recommand CD images from Redump. Tech Dunk 32,653 views. Some games have already been dumped, but the current ROM images have been identified either as being hacked or as being corrupt in some way, necessitating them being dumped again. Includes manuals. The mysqldump client utility performs logical backups, producing a set of SQL statements that can be executed to reproduce the original database object definitions and table data. Once your missing ROM files list has been populated you can then click on an item and choose which action you wish to perform on the file such as Fuzzy Match or Remove From Database. Now I cant even play it? Please help me. Over here, we have a great selection of console BIOS files to use on emulators like the Dreamcast Bios for Reicast on Android devices and many more. So, I decided to do a bit more refactoring to the ambush driver first, to make it easier to move the bootlegs to the correct driver. Emulator: PCSX2 - Playstation 2 BIOS (PS2 BIOS) User rating: File size: 12. Together we are stronger. For purchasing internationally see Regional Online Stores. 7z format and can be opened with the free tool 7-Zip. The same logic applies to missing rows, except that up/down symmetry is assumed. There are two key uses of NKit: Recovery: Rebuild and repair images to match Redump verified images. This is why i provided both a Redump and Non-Redump dat in my previous post. org also provides guides to ensure the dumps are correctly done. Retrogaming, émulateurs et téléchargement de ROMs. Any of my search term words; All of my search term words; Find results in Content titles and body; Content titles only. ORG File: Legend of Zelda, The - Twilight Princess (USA) (En,Fr,Es) (v1. The games have been tested for booting and about 1-2 minutes of playtime, i. Redump: Similiar mission as No-Intro but ONLY for optical media, also not quite as pure as trurip: Redump is a disc preservation database and internet community dedicated to collecting precise and accurate information about every video game ever released on optical media of any system. It all started with a broken contract with Nintendo at the end of the decade of 1980. Wanted: Manual scans Wanted: Redump of Microsoft C 5. I am using pgAdmin III, and when I use its "Restore Wizard" it does not. +EPR-21576c - NAOMI BOOT ROM 1999 03/11 1. If you would like to run a name search on the missing file you can than set the Fuzzy Match tolerance to a desired percentile (I personally use 0. Getting an incorrect key means you might have a bad dump of your switch's files. If you are sure everything is in the proper spot, the problem could be caused by video issues. Name Redump meaning and secret personality analysis. Redump PC-Engine CD/TurboGrafx CD set (2016-11-06) Redump NEC - PC Engine CD & TurboGrafx CD set. I don't get it!!!! I waited THREE weeks to download 32 GB worth of crap on!! JUST to get CarnEvil CHD. +Korea and Australia is missing. "Non Redump PlayStation 2 Asia & Japan" is a compilation. You need daemon tools because there're any emulator that support this (non-standard) multi-track format. Restores Hiryu's missing "Hah!" voice track that he uses when he attacks enemies & bosses with his Cypher. Torrent only. org对比校验,理论上可以作为1:1原盘数据备份,以便用于再次的光盘制作及数据拷贝。. TUTORIAL: Here is a quick tutorial on how to verify a MD5 checksum from redump. Redump PC-Engine CD/TurboGrafx CD set (2016-11-06) Redump NEC - PC Engine CD & TurboGrafx CD set. bin (2048 bytes) - NOT FOUND (mie). version), Tiger R-Zone (Super Screen version, but can't get display to work), and 19 more carts: Batman & Robin, Panzer Dragoon (with Super Screen), Men In Black, Indy 500, Mortal Kombat 3, Mortal Kombat Trilogy, Independence Day, Virtua Fighter, Virtua Fighter 2, Nights Into Dreams, The Lost World, Apollo 13, Star Wars:Rebel Forces, Virtua Cop, Area 51, Road Rash 3. Leave a Reply Cancel reply. PBP file is already included, so all you need to do is download it and extract it: STEP 2: Run the Program:. There is nothing to be done about these messages until some MAME dumpers can get their hands on a game PCB, redump the chips and send them to the MAME team. Find out what CHDs are and how to set them up properly with my quick tutorial. in/public/chkb. It enables you to run classic games on a wide range of computers and consoles through its slick graphical interface. Reviewed By: SCO on 05 Aug 2017 While the (very old) readme claims you apply the patch to ‘the first print of the game’, redump for some reason puts in ‘the first print’ of this game with the version number 1. bin" BINARY TRACK 01 MODE2/2352 INDEX 01 00:00:00 We recommand CD images from Redump. the price for PS · SS · N64 · 3DO Masterpiece Game Collection drops. org itself does not have the Wii game database public, the Github Repository for CleanRip does have the. MESS documents and reproduces through emulation the inner components of computers, consoles, chess computers and calculators. Any hashes for games not in the redump. Redump org ps3. MESS System Information File. Many thousands of hours have been put into creating a database with. Dumps have never and will never be provided on the Redump site!. Redump's staff does not ask for the actual dumps, only the disc information and dump information. Missing lots of games. I have a dump file with a. This Vault contains every Wii game released in the US, verified by Redump. This directory contains files containing information that tell Citra how to run. For purchasing internationally see Regional Online Stores. Compare to the same track in the Redump database entry. There seems to be some games missing on the PS2 side. the price for PS · SS · N64 · 3DO Masterpiece Game Collection drops. Includes manuals. Tiger R-Zone (X. You can see this confirmed by the filename of the included DAT. * Added a rudimentary layout showing the lamps and buttons. 2 DOWNLOAD: MEGA | GDrive First we need to download a program to convert PSX games to PSP EBOOT, it. Download name Version Language. Re-Loaded: The Hardcore Sequel - Sound effect glitches. RetroArch is a frontend for emulators, game engines and media players. h文件 #ifndef __glext_h_. Audit: "ROM NEEDS REDUMP" No Ham: 2/2/00 12:00 AM: Just did an audit with mame32 36b15 after downloading the b12, b13, b14, and b15 roms. Includes DAT files to verify with ClrMamePro. It's now been 10 years since we started our journey (nostalgia trip) and a lot has happened in those 10 years: Many people have come and gone and a lot of new systems and information have been added over the years. Send us redump information! Encrypted: This is a known (or suspected) bad dump. This site host perfect rips as verified by redump. This directory contains files containing information that tell Citra how to run. The goal is to make blueprints of the data on console and PC game discs. It all started with a broken contract with Nintendo at the end of the decade of 1980. You can often fix it by selecting “Options” > “Default Game Options” > “Advanced” and ensuring that “Switch resolutions to fit” is unchecked. J:\MAME>mame64 -verifyroms bbca bbca : saa5050 (960 bytes) - NEEDS REDUMP romset bbca [bbcb] is best available 1 romsets found, 1 were OK. Swap the parameters in /home/safeconindiaco/account. Mostly NTSC-J games that aren't even on redump either. org, r09] fmtowns_flop: Ai Shimai - Futari no Kajitsu, Doukyuusei 2 Special Disk, Music Pro-Towns (1990-05-23), S. Ricing RetroArch. Redump's staff does not ask for the actual dumps, only the disc information and dump information. org is the "source of truth" so to speak for these hashes (Notice how CleanRip references redump. The mysqldump client utility performs logical backups, producing a set of SQL statements that can be executed to reproduce the original database object definitions and table data. [Angelo Salese] -subsino2. Redump 3DO set (2017-04-04). bin j2-u001. I'm not sure if this is allowed but here is a list of over 8000 psx roms. You can see this confirmed by the filename of the included DAT. See also: MIA Lists. Redump's staff does not ask for the actual dumps, only the disc information and dump information. If you don't know how to get the hash of your game, use this tool. If any link is outdated, or if you know of any good emulator missing, please let us know. REDUMP: Saturn Release #0137 - Mortal Kombat Trilogy (EUR) by CBeard - 29 Tracks. Removes the anti-modchip. Region Title System Version Edition Languages Serial Status ¡Qué Pasa Neng! El Videojuego. org dat were gathered from various places and verified against several people's collections. Any of my search term words; All of my search term words; Find results in Content titles and body; Content titles only. org (working): Dracula Hakushaku - Bishoujo-tachi no Chi no Shitatari Hyper Planet Lemon Cocktail Collection Märchen Toshokan - Grimm Douwa - Bremen no Ongakutai Nihon no Rekishi - Ishin-hen - Kurofune Raikou Phobos Towns Chiri - Jigsaw World - New dumps from redump. ScreenShots:. A collection of miss lists for redump. There will be a change made for the next version that will allow the ISO to be saved where currently it shows "Update partition *_AFD3A24A missing". mariobl was marked working, but dkong3abl had bad graphics, and various bits were missing. A Database is attached. MUCH faster than with BIN+CUE. The naming convention is based on the 2019-3-31 ReDump set. Fixes spelling errors in the text that are used in the Stage 00 cutscene. Redump Dreamcast set (2015-09-20). Albert Odyssey - Battle status text is sometimes truncated. 10/05/11: Today WiiTDB became GameTDB and we hope that together we will have as much fun creating new databases for new systems as we did for the Wii. Recovery uses these files to rebuild the iso and repair modified disc headers, unscrub blocks, reinsert missing Wii partitions, move and reorder GameCube filesystems. Browse ROMs / ISOs by download count and ratings. Together we are stronger. @@ -35,11 +35,12 @@ There's a chance that certain bootlegs might have the different 8/20 MHz XTALS. 2 DOWNLOAD: MEGA | GDrive First we need to download a program to convert PSX games to PSP EBOOT, it. Retrogaming, émulateurs et téléchargement de ROMs. If you are missing the titlekey or an update won't load, sometimes updates change the titlekey between versions - either way redump and if that doesn't work contact the discord/devs. Emulator: PCSX2 - Playstation 2 BIOS (PS2 BIOS) User rating: File size: 12. Redump 3DO set (2017-04-04). Redump - Nintendo Wii Usa - Part 2 Internet Archive HTML5 Uploader 1. 000?, SATURN81048B ringcode (no RE) T-17701H Rayman -- v1. Anything missing from this collection that is listed on Redump's database was never shared by the dumper (s) or anyone else in possession of the disc (s). Missing lots of games. This site host perfect rips as verified by redump. The games have been tested for booting and about 1-2 minutes of playtime, i. argdb_scraper. Psx redump collection. Description: Medievil is a Action video game published by Sony released on October 21, 1998 for the Sony PlayStation. 146u5) - September 17th 2012 (0. It is highly recommended that you redump your. The goal is to make blueprints of the data on console and PC game discs. There is nothing to be done about these messages until some MAME dumpers can get their hands on a game PCB, redump the chips and send them to the MAME team. 4), and then. Also included is a folder with 225 3D Boxes for games not listed in the ReDump rom set. The naming convention is based on the 2019-3-31 ReDump set. org also provides guides to ensure the dumps are correctly done. Redump PC-Engine CD/TurboGrafx CD set (2016-11-06) Redump NEC - PC Engine CD & TurboGrafx CD set. Dumps have never and will never be provided on the Redump site!. Download section for Sega Saturn ROMs / ISOs of Rom Hustler. 100% Fast Downloads!. "Non Redump PlayStation 2 Asia & Japan" is a compilation. You can see this confirmed by the filename of the included DAT. Redump - disc images information. Region Title System Version Edition Languages Serial Status ¡Qué Pasa Neng! El Videojuego. One of them is Crash Tag Team Racing, the Japanese version, known as: Crash Bandicoot: Gacchanko World. Main Discs Downloads Site Guide Wiki Forum. Recovery: Rebuild and repair images to match Redump verified images. If you have a CCD+IMG+SUB image, you only need to worry about the IMG file. The same redump forum it's full of topic that shows the big limits of the actual method and the possible alternatives. i recently started playing pokemon moon downloaded from your site and is working fine. Is a really niche japanese platform, expensive as hell, and any single help you can provide on this task, will save my partners a lot of time, money and auctions.